<?xml version="1.0" standalone="no"?>
<!DOCTYPE svg PUBLIC "-//W3C//DTD SVG 1.1//EN" "http://www.w3.org/Graphics/SVG/1.1/DTD/svg11.dtd">
<svg xmlns="http://www.w3.org/2000/svg">
<metadata>Iconscout</metadata>
<defs>
<font id="unicons-7" horiz-adv-x="1000" >
<font-face font-family="unicons-7" font-weight="400" font-stretch="normal" units-per-em="1000" ascent="850" descent="-150" />
<missing-glyph horiz-adv-x="1000" />
<glyph glyph-name="keyboard" unicode="&#xe9a5;" d="M259 296a39 39 0 0 1-14 9 42 42 0 0 1-32 0 38 38 0 0 1-22-22 42 42 0 1 1 77 0 42 42 0 0 1-9 13z m304 96h41a42 42 0 0 1 0 83h-41a42 42 0 0 1 0-83z m-167 0h42a42 42 0 0 1 0 83h-42a42 42 0 0 1 0-83z m-125 83h-42a42 42 0 0 1 0-83h42a42 42 0 0 1 0 83z m562 167h-666a125 125 0 0 1-125-125v-334a125 125 0 0 1 125-125h666a125 125 0 0 1 125 125v334a125 125 0 0 1-125 125z m42-459a42 42 0 0 0-42-41h-666a42 42 0 0 0-42 41v334a42 42 0 0 0 42 41h666a42 42 0 0 0 42-41z m-250 125h-250a42 42 0 0 1 0-83h250a42 42 0 0 1 0 83z m146 167h-42a42 42 0 0 1 0-83h42a42 42 0 0 1 0 83z m29-179a42 42 0 0 1-13 9 42 42 0 0 1-32 0 39 39 0 0 1-14-9 42 42 0 0 1-8-13 42 42 0 1 1 80-16 35 35 0 0 1-4 16 42 42 0 0 1-9 13z" horiz-adv-x="1000" />

<glyph glyph-name="volume-off" unicode="&#xe9a6;" d="M705 679a42 42 0 0 1-41-5l-199-157h-152a42 42 0 0 1-42-42v-250a42 42 0 0 1 42-42h152l197-157a42 42 0 0 1 26-9 38 38 0 0 1 17 4 42 42 0 0 1 24 37v584a42 42 0 0 1-24 37z m-59-534l-141 113a42 42 0 0 1-26 9h-125v166h125a42 42 0 0 1 26 10l141 112z" horiz-adv-x="1000" />

<glyph glyph-name="edit-alt" unicode="&#xe9a7;" d="M208 100h177a42 42 0 0 1 30 12l288 289h0l118 116a42 42 0 0 1 0 59l-176 179a42 42 0 0 1-60 0l-117-118h0l-289-289a42 42 0 0 1-12-30v-176a42 42 0 0 1 41-42z m407 566l118-118-59-59-118 118z m-365-365l247 247 118-118-247-247h-118z m625-284h-750a42 42 0 0 1 0-84h750a42 42 0 0 1 0 84z" horiz-adv-x="1000" />

<glyph glyph-name="restaurant" unicode="&#xe9a8;" d="M702 365a125 125 0 0 1 90 37l118 118a42 42 0 0 1 0 59 42 42 0 0 1-60 0l-119-118a42 42 0 0 0-59 0h0l148 147a42 42 0 1 1-60 60l-147-148a42 42 0 0 0 0 59l118 118a42 42 0 1 1-59 59l-118-118a125 125 0 0 1 0-177h0l-54-53-345 345-4 3a30 30 0 0 1-7 4l-7 3-5 4h-3l-9 0a24 24 0 0 1-7 0 29 29 0 0 1-7-4l-7-4-3 0-2-4a42 42 0 0 1-5-7 45 45 0 0 1-3-8s0-3 0-5a458 458 0 0 1 130-389l110-110-226-225a42 42 0 0 1 0-59 42 42 0 0 1 30-12 42 42 0 0 1 30 12l253 249h0l117 118h0l84 83a125 125 0 0 1 88-37z m-319-75l-110 110a378 378 0 0 0-106 225l275-275z m260-24a42 42 0 0 1-60-59l263-263a42 42 0 0 1 29-11 42 42 0 0 1 30 12 42 42 0 0 1 0 60z" horiz-adv-x="1000" />

<glyph glyph-name="exclamation-octagon" unicode="&#xe9a9;" d="M500 558a42 42 0 0 1-42-41v-167a42 42 0 0 1 84 0v167a42 42 0 0 1-42 41z m0-333a42 42 0 1 1 42-42 42 42 0 0 1-42 42z m405 310l-220 220a44 44 0 0 1-30 12h-310a44 44 0 0 1-30-12l-220-220a44 44 0 0 1-12-30v-310a44 44 0 0 1 12-30l220-220a44 44 0 0 1 30-12h310a44 44 0 0 1 30 12l220 220a44 44 0 0 1 12 30v310a44 44 0 0 1-12 30z m-72-323l-195-195h-276l-195 195v276l195 195h276l195-195z" horiz-adv-x="1000" />

<glyph glyph-name="globe" unicode="&#xe9aa;" d="M892 490s0 0 0 2a417 417 0 0 1-782 0s0 0 0-2a411 411 0 0 1 0-280s0 0 0-2a417 417 0 0 1 782 0s0 0 0 2a411 411 0 0 1 0 280z m-715-223a326 326 0 0 0 0 166h78a697 697 0 0 1 0-166z m35-84h58a506 506 0 0 1 42-107 333 333 0 0 0-100 107z m58 334h-58a333 333 0 0 0 98 107 506 506 0 0 1-40-107z m188-488a264 264 0 0 0-101 154h101z m0 238h-119a598 598 0 0 0 0 166h119z m0 250h-101a264 264 0 0 0 101 154z m330 0h-58a506 506 0 0 1-42 107 333 333 0 0 0 100-107z m-246 154a264 264 0 0 0 101-154h-101z m0-642v154h101a264 264 0 0 0-101-154z m119 238h-119v166h119a598 598 0 0 0 0-166z m29-191a506 506 0 0 1 41 107h59a333 333 0 0 0-100-107z m132 191h-77a673 673 0 0 1 5 83 678 678 0 0 1-5 83h78a326 326 0 0 0 0-166z" horiz-adv-x="1000" />

<glyph glyph-name="favorite" unicode="&#xe9ab;" d="M917 447a42 42 0 0 1-36 28l-237 35-106 215a42 42 0 0 1-75 0l-107-215-237-35a42 42 0 0 1-34-28 42 42 0 0 1 11-42l172-167-42-236a42 42 0 0 1 62-45l212 111 213-111a39 39 0 0 1 19-5 42 42 0 0 1 24 8 42 42 0 0 1 17 41l-42 237 172 167a42 42 0 0 1 14 42z m-257-167a42 42 0 0 1-12-36l30-175-156 83a44 44 0 0 1-40 0l-156-83 30 175a42 42 0 0 1-12 36l-125 125 175 26a42 42 0 0 1 32 23l74 159 78-160a42 42 0 0 1 32-23l175-25z" horiz-adv-x="1000" />

<glyph glyph-name="question-circle" unicode="&#xe9ac;" d="M470 213a66 66 0 0 1-5-6 32 32 0 0 1-3-8 27 27 0 0 1-3-7 57 57 0 0 1 0-9 35 35 0 0 1 3-15 38 38 0 0 1 23-23 39 39 0 0 1 32 0 38 38 0 0 1 22 23 42 42 0 0 1 3 15 42 42 0 0 1-12 30 42 42 0 0 1-60 0z m30 554a417 417 0 1 1 417-417 417 417 0 0 1-417 417z m0-750a333 333 0 1 0 333 333 333 333 0 0 0-333-333z m0 541a125 125 0 0 1-108-62 42 42 0 1 1 72-42 42 42 0 0 0 36 21 42 42 0 0 0 0-83 42 42 0 0 1-42-42v-42a42 42 0 0 1 84 0v8a125 125 0 0 1-42 242z" horiz-adv-x="1000" />

<glyph glyph-name="info-circle" unicode="&#xe9ad;" d="M500 767a417 417 0 1 1 417-417 417 417 0 0 1-417 417z m0-750a333 333 0 1 0 333 333 334 334 0 0 0-333-333z m0 354a42 42 0 0 1-42-42v-125a42 42 0 0 1 84 0v125a42 42 0 0 1-42 42z m0 166a52 52 0 1 1 52-52 52 52 0 0 1-52 53z" horiz-adv-x="1000" />

<glyph glyph-name="filter" unicode="&#xe9ae;" d="M792 767h-584a125 125 0 0 1-125-125v-49a125 125 0 0 1 11-50l0-3a117 117 0 0 1 24-35l257-255v-275a42 42 0 0 1 20-35 42 42 0 0 1 22-7 42 42 0 0 1 18 5l167 83a42 42 0 0 1 23 37v192l255 255a117 117 0 0 1 25 35l0 3a125 125 0 0 1 12 50v49a125 125 0 0 1-125 125z m-238-471a42 42 0 0 1-12-29v-183l-84-41v224a42 42 0 0 1-12 29l-221 221h550z m279 304h-666v42a42 42 0 0 0 41 41h584a42 42 0 0 0 41-41z" horiz-adv-x="1000" />

<glyph glyph-name="volume" unicode="&#xe9af;" d="M518 679a42 42 0 0 1-42-5l-199-157h-152a42 42 0 0 1-42-42v-250a42 42 0 0 1 42-42h152l197-157a42 42 0 0 1 26-9 38 38 0 0 1 18 4 42 42 0 0 1 24 37v584a42 42 0 0 1-24 37z m-60-534l-140 113a42 42 0 0 1-26 9h-125v166h125a42 42 0 0 1 25 10l141 112z m361 441a42 42 0 0 1-59-59 250 250 0 0 0-16-369 42 42 0 0 1 27-73 42 42 0 0 1 26 10 333 333 0 0 1 22 491z m-118-118a42 42 0 1 1-59-59 83 83 0 0 0 25-59 83 83 0 0 0-30-64 42 42 0 0 1-5-58 42 42 0 0 1 58-5 167 167 0 0 1 60 127 169 169 0 0 1-49 118z" horiz-adv-x="1000" />

<glyph glyph-name="exclamation-triangle" unicode="&#xe9b0;" d="M500 183a42 42 0 1 1 42-41 42 42 0 0 1-42 41z m445-61l-336 583a125 125 0 0 1-218 0l-334-583a125 125 0 0 1 107-189h672a125 125 0 0 1 109 189z m-73-83a42 42 0 0 0-36-21h-672a42 42 0 0 0-36 21 42 42 0 0 0 0 41l333 584a42 42 0 0 0 74 0l335-584a42 42 0 0 0 3-42z m-372 478a42 42 0 0 1-42-42v-167a42 42 0 0 1 84 0v167a42 42 0 0 1-42 42z" horiz-adv-x="1000" />

<glyph glyph-name="exclamation-circle" unicode="&#xe9b1;" d="M500 267a52 52 0 1 1 52-52 52 52 0 0 1-52 52z m0 62a42 42 0 0 1 42 42v125a42 42 0 0 1-84 0v-125a42 42 0 0 1 42-42z m0 438a417 417 0 1 1 417-417 417 417 0 0 1-417 417z m0-750a333 333 0 1 0 333 333 334 334 0 0 0-333-333z" horiz-adv-x="1000" />

<glyph glyph-name="thumbs-down" unicode="&#xe9b2;" d="M792 767h-531a125 125 0 0 1-123-103l-53-291a125 125 0 0 1 123-148h190l-23-60a172 172 0 0 1 162-232 42 42 0 0 1 38 25l119 267h98a125 125 0 0 1 125 125v292a125 125 0 0 1-125 125z m-167-492l-113-255a89 89 0 0 0-58 116l22 60a83 83 0 0 1-78 112h-190a42 42 0 0 0-32 15 42 42 0 0 0-9 35l53 291a42 42 0 0 0 41 34h364z m208 75a42 42 0 0 0-41-42h-84v375h84a42 42 0 0 0 41-41z" horiz-adv-x="1000" />

<glyph glyph-name="multiply" unicode="&#xe9b3;" d="M559 350l262 262a42 42 0 1 1-59 59l-262-262-262 262a42 42 0 0 1-59-59l262-262-262-262a42 42 0 0 1 0-59 42 42 0 0 1 59 0l262 262 262-262a42 42 0 0 1 59 0 42 42 0 0 1 0 59z" horiz-adv-x="1000" />

<glyph glyph-name="check-square" unicode="&#xe9b4;" d="M425 235a42 42 0 0 1 60 0l170 170a42 42 0 0 1-60 60l-140-141-50 51a42 42 0 0 1-60-60z m450 532h-750a42 42 0 0 1-42-42v-750a42 42 0 0 1 42-42h750a42 42 0 0 1 42 42v750a42 42 0 0 1-42 42z m-42-750h-666v666h666z" horiz-adv-x="1000" />

<glyph glyph-name="times-circle" unicode="&#xe9b5;" d="M655 505a42 42 0 0 1-60 0l-95-96-95 96a42 42 0 0 1-60-60l96-95-96-95a42 42 0 0 1 0-60 42 42 0 0 1 60 0l95 96 95-96a42 42 0 0 1 60 0 42 42 0 0 1 0 60l-96 95 96 95a42 42 0 0 1 0 60z m140 140a417 417 0 1 1-590-590 417 417 0 1 1 590 590z m-59-531a333 333 0 1 0 97 236 331 331 0 0 0-97-236z" horiz-adv-x="1000" />

<glyph glyph-name="box" unicode="&#xe9b6;" d="M854 537a8 8 0 0 0 0 3 7 7 0 0 0 0 3l0 4-3 6 0 0h0l0 0 0 0a20 20 0 0 1-4 5l-3 3h0l-2 0 0 0-164 104h0l-155 95a35 35 0 0 1-13 7h-3a34 34 0 0 1-11 0h-4a47 47 0 0 1-14-6l-311-193-4-3-4-4-4-3-2-2 0 0-3-6 0-4v-3a29 29 0 0 1 0-8v-364a42 42 0 0 1 20-35l313-194h0l0 0 6-2 3 0a36 36 0 0 1 22 0l3 0 6 2 0 0h0l310 191a42 42 0 0 1 20 35v364s1 3 1 5z m-354 139l74-46-233-144-74 46z m-42-625l-229 140v267l229-142z m42 338l-80 48 233 145 80-50z m271-196l-229-143v266l229 142z" horiz-adv-x="1000" />

<glyph glyph-name="sim-card" unicode="&#xe9b7;" d="M708 704h-416a146 146 0 0 1-146-146v-416a146 146 0 0 1 146-146h416a146 146 0 0 1 146 146v416a146 146 0 0 1-146 146z m-271-83h126v-125h-125z m-83-542h-62a63 63 0 0 0-63 63v62h125z m209 0h-125v125h125z m208 63a63 63 0 0 0-63-63h-62v125h125z m0 146h-542v270a63 63 0 0 0 63 63h62v-167a42 42 0 0 1 42-41h375z m0 208h-125v125h62a63 63 0 0 0 63-63z" horiz-adv-x="1000" />

<glyph glyph-name="times" unicode="&#xe9b8;" d="M559 350l179 179a42 42 0 1 1-59 59l-179-179-179 179a42 42 0 0 1-59-59l179-179-179-179a42 42 0 0 1 0-59 42 42 0 0 1 59 0l179 179 179-179a42 42 0 0 1 59 0 42 42 0 0 1 0 59z" horiz-adv-x="1000" />

<glyph glyph-name="times-square" unicode="&#xe9b9;" d="M655 505a42 42 0 0 1-60 0l-95-96-95 96a42 42 0 0 1-60-60l96-95-96-95a42 42 0 0 1 0-60 42 42 0 0 1 60 0l95 96 95-96a42 42 0 0 1 60 0 42 42 0 0 1 0 60l-96 95 96 95a42 42 0 0 1 0 60z m137 262h-584a125 125 0 0 1-125-125v-584a125 125 0 0 1 125-125h584a125 125 0 0 1 125 125v584a125 125 0 0 1-125 125z m41-709a42 42 0 0 0-41-41h-584a42 42 0 0 0-41 41v584a42 42 0 0 0 41 41h584a42 42 0 0 0 41-41z" horiz-adv-x="1000" />

<glyph glyph-name="link-broken" unicode="&#xe9ba;" d="M198 409a42 42 0 0 1 11 83l-73 18a42 42 0 1 1-22-80l73-20a33 33 0 0 1 11-1z m161 233a42 42 0 0 1 42-31 34 34 0 0 1 11 0 42 42 0 0 1 29 51l-20 73a42 42 0 1 1-80-22z m201-417a42 42 0 0 1-60 0l-146-148a92 92 0 0 0-127 0 90 90 0 0 0 0 127l148 146a42 42 0 1 1-59 59l-149-146a174 174 0 1 1 246-246l147 147a42 42 0 0 1 0 61z m-344 350a42 42 0 0 1 29-12 42 42 0 0 1 30 12 42 42 0 0 1 0 59l-54 54a42 42 0 0 1-59-59z m670-305l-74 20a42 42 0 1 1-20-81l73-19 11 0a42 42 0 0 1 11 83z m-245-212a42 42 0 0 1-51 30 42 42 0 0 1-30-51l20-74a42 42 0 0 1 42-31 48 48 0 0 1 11 0 42 42 0 0 1 29 52z m143 66a42 42 0 0 1-59-59l54-54a42 42 0 0 1 59 0 42 42 0 0 1 0 59z m99 434a173 173 0 0 1-296 125l-147-148a42 42 0 1 1 60-60l146 148a92 92 0 0 0 127 0 90 90 0 0 0 0-127l-148-146a42 42 0 0 1 0-59 42 42 0 0 1 59 0l149 146a175 175 0 0 1 50 121z" horiz-adv-x="1000" />

<glyph glyph-name="cube" unicode="&#xe9bb;" d="M853 543s0 0 0 3l-3 7a30 30 0 0 1-3 3 39 39 0 0 1-3 5l-4 3-7 4-312 192a42 42 0 0 1-44 0l-310-192-4-4-4-3a39 39 0 0 1-4-5 30 30 0 0 1-2-3l-3-7s0 0 0-3a48 48 0 0 1 0-11v-364a42 42 0 0 1 20-35l312-193h0a20 20 0 0 1 6-3s2 0 4 0a36 36 0 0 1 21 0s2 0 4 0a20 20 0 0 1 6 3h0l310 193a42 42 0 0 1 20 35v364a48 48 0 0 1 0 11z m-395-493l-229 141v266l229-141z m42 338l-233 144 233 144 233-144z m271-197l-229-141v266l229 141z" horiz-adv-x="1000" />

<glyph glyph-name="bolt-alt" unicode="&#xe9bc;" d="M829 452a42 42 0 0 1-37 23h-209v250a42 42 0 0 1-28 42 42 42 0 0 1-47-15l-333-459a42 42 0 0 1-4-41 42 42 0 0 1 37-27h209v-250a42 42 0 0 1 28-40 47 47 0 0 1 13-2 42 42 0 0 1 34 17l333 459a42 42 0 0 1 4 43z m-329-349v164a42 42 0 0 1-42 41h-166l208 289v-164a42 42 0 0 1 42-41h166z" horiz-adv-x="1000" />

<glyph glyph-name="calender" unicode="&#xe9bd;" d="M792 683h-84v42a42 42 0 0 1-83 0v-42h-250v42a42 42 0 0 1-83 0v-42h-84a125 125 0 0 1-125-125v-500a125 125 0 0 1 125-125h584a125 125 0 0 1 125 125v500a125 125 0 0 1-125 125z m41-625a42 42 0 0 0-41-41h-584a42 42 0 0 0-41 41v292h666z m0 375h-666v125a42 42 0 0 0 41 42h84v-42a42 42 0 0 1 83 0v42h250v-42a42 42 0 0 1 83 0v42h84a42 42 0 0 0 41-42z" horiz-adv-x="1000" />

<glyph glyph-name="battery-empty" unicode="&#xe9be;" d="M708 558h-541a83 83 0 0 1-84-83v-250a83 83 0 0 1 84-83h541a83 83 0 0 1 84 83v250a83 83 0 0 1-84 83z m0-333h-541v250h541z m167 208a42 42 0 0 1-42-41v-84a42 42 0 0 1 84 0v84a42 42 0 0 1-42 41z" horiz-adv-x="1000" />

<glyph glyph-name="at" unicode="&#xe9bf;" d="M500 767a417 417 0 1 1 208-778 42 42 0 1 1-41 72 333 333 0 1 0 166 289v-31a73 73 0 0 0-145 0v177a42 42 0 0 1-42 42 42 42 0 0 1-42-33 185 185 0 0 1-104 33 188 188 0 1 1 138-313 156 156 0 0 1 279 94v31a417 417 0 0 1-417 417z m0-521a104 104 0 1 0 104 104 104 104 0 0 0-104-104z" horiz-adv-x="1000" />

<glyph glyph-name="battery-bolt" unicode="&#xe9c0;" d="M279 225h-112v250h96a42 42 0 0 1 0 83h-96a83 83 0 0 1-84-83v-250a83 83 0 0 1 84-83h112a42 42 0 1 1 0 83z m300 107a53 53 0 0 1 2 7 59 59 0 0 1 0 8s0 0 0 3 0 3 0 5a27 27 0 0 1-2 8 37 37 0 0 1-3 7 36 36 0 0 1-4 7l-7 5-4 4-2 0-8 3-8 0h-138l61 104a42 42 0 1 1-73 42l-96-167s0 0 0-3a53 53 0 0 1-2-7 59 59 0 0 1 0-8s-3 0-3 0 0-3 0-5a27 27 0 0 1 2-8 37 37 0 0 1 3-7 36 36 0 0 1 4-7l7-5a32 32 0 0 1 4-4l3 0 3 0a42 42 0 0 1 15-6h137l-61-104a42 42 0 0 1 73-41l96 166s0 2 1 3z m296 101a42 42 0 0 1-42-41v-84a42 42 0 0 1 84 0v84a42 42 0 0 1-42 41z m-167 125h-112a42 42 0 0 1 0-83h112v-250h-96a42 42 0 1 1 0-83h96a83 83 0 0 1 84 83v250a83 83 0 0 1-84 83z" horiz-adv-x="1000" />

<glyph glyph-name="plus-circle" unicode="&#xe9c1;" d="M500 767a417 417 0 1 1 417-417 417 417 0 0 1-417 417z m0-750a333 333 0 1 0 333 333 333 333 0 0 0-333-333z m167 375h-125v125a42 42 0 0 1-84 0v-125h-125a42 42 0 0 1 0-84h125v-125a42 42 0 0 1 84 0v125h125a42 42 0 0 1 0 84z" horiz-adv-x="1000" />

<glyph glyph-name="check-circle" unicode="&#xe9c2;" d="M613 484l-178-179-69 68a42 42 0 1 1-59-58l98-99a42 42 0 0 1 30-12 42 42 0 0 1 29 12l208 209a42 42 0 0 1 0 59 42 42 0 0 1-59 0z m-113 283a417 417 0 1 1 417-417 417 417 0 0 1-417 417z m0-750a333 333 0 1 0 333 333 333 333 0 0 0-333-333z" horiz-adv-x="1000" />

<glyph glyph-name="check" unicode="&#xe9c3;" d="M780 550a42 42 0 0 1-60 0l-310-311-130 131a42 42 0 1 1-60-62l160-160a42 42 0 0 1 60 0l340 340a42 42 0 0 1 0 62z" horiz-adv-x="1000" />

<glyph glyph-name="adjust-half" unicode="&#xe9c4;" d="M868 545h0a421 421 0 0 1-143 155l0 0h0a417 417 0 1 1-225-767h12a417 417 0 0 1 356 612z m-410-525a333 333 0 0 0 0 660z m84 660a336 336 0 0 0 103-30l-103-180z m0-375l173 299a339 339 0 0 0 66-76l-239-415z m48-274l232 402a340 340 0 0 0 11-83 333 333 0 0 0-243-321z" horiz-adv-x="1000" />

<glyph glyph-name="paperclip" unicode="&#xe9c5;" d="M753 333l-257-258a177 177 0 0 0-250 250l333 333a107 107 0 0 0 148 0 105 105 0 0 0 0-148l-288-287a31 31 0 1 0-46 44l213 213a42 42 0 0 1-59 59l-214-214a114 114 0 0 1 0-162 117 117 0 0 1 162 0l288 287a188 188 0 0 1-265 265l-334-333a260 260 0 0 1 371-365l258 257a42 42 0 1 1-60 59z" horiz-adv-x="1000" />

<glyph glyph-name="bullseye" unicode="&#xe9c6;" d="M500 642a292 292 0 1 1 292-292 292 292 0 0 1-292 292z m0-500a208 208 0 1 0 208 208 208 208 0 0 0-208-208z m0 333a125 125 0 1 1 125-125 125 125 0 0 1-125 125z m0-167a42 42 0 1 0 42 42 42 42 0 0 0-42-42z m0 500a458 458 0 1 1 458-458 458 458 0 0 1-458 458z m0-833a375 375 0 1 0 375 375 375 375 0 0 0-375-375z" horiz-adv-x="1000" />

<glyph glyph-name="brightness" unicode="&#xe9c7;" d="M208 350a42 42 0 0 1-41 42h-42a42 42 0 0 1 0-84h42a42 42 0 0 1 41 42z m27-208l-30-30a42 42 0 0 1 0-59 42 42 0 0 1 59 0l30 30a42 42 0 0 1-59 59z m265 500a42 42 0 0 1 42 41v42a42 42 0 0 1-84 0v-42a42 42 0 0 1 42-41z m236-98a42 42 0 0 1 29 12l30 30a42 42 0 1 1-59 59l-28-30a42 42 0 0 1 0-59 42 42 0 0 1 28-12z m-500 12a42 42 0 0 1 29-12 42 42 0 0 1 30 12 42 42 0 0 1 0 59l-30 30a42 42 0 0 1-60-59z m639-164h-42a42 42 0 0 1 0-84h42a42 42 0 0 1 0 84z m-110-250a42 42 0 0 1-57-57l30-30a42 42 0 0 1 59 0 42 42 0 0 1 0 59z m-265 437a229 229 0 1 1 229-229 230 230 0 0 1-229 229z m0-375a146 146 0 1 0 146 146 146 146 0 0 0-146-146z m0-146a42 42 0 0 1-42-41v-42a42 42 0 0 1 84 0v42a42 42 0 0 1-42 41z" horiz-adv-x="1000" />

<glyph glyph-name="adjust-alt" unicode="&#xe9c8;" d="M868 545h0a8 8 0 0 1 0 3 417 417 0 0 1-141 152l0 0h0a412 412 0 0 1-227 67 42 42 0 0 1-42-42v-750a42 42 0 0 1 42-42h12a417 417 0 0 1 356 612z m-326 136a333 333 0 0 0 103-31l-103-180z m0-378l173 301a329 329 0 0 0 66-76l-239-415z m48-273l233 403a348 348 0 0 0 10-83 331 331 0 0 0-243-320z" horiz-adv-x="1000" />

<glyph glyph-name="adjust-circle" unicode="&#xe9c9;" d="M708 558a323 323 0 1 1-416-416 323 323 0 1 1 416 416z m-66-66a255 255 0 0 0 4-48 247 247 0 0 0-6-56l-102 101a247 247 0 0 0 56 7 255 255 0 0 0 47-5z m-39-184a250 250 0 0 0-61-60l-145 144a250 250 0 0 0 61 61z m-334-60a240 240 0 1 0 334 333h-11a323 323 0 0 1-321-325c0-3 0-7 0-10z m88-38a255 255 0 0 0-5 48 247 247 0 0 0 7 56l101-101a247 247 0 0 0-56-7 255 255 0 0 0-45 3z m237-193a240 240 0 0 0-198 104h10a323 323 0 0 1 323 323c0 3 0 7 0 10a240 240 0 0 0-135-437z" horiz-adv-x="1000" />

<glyph glyph-name="brightness-half" unicode="&#xe9ca;" d="M500 517a42 42 0 0 1 0-84 83 83 0 0 0 0-166 42 42 0 0 1 0-84 167 167 0 0 1 0 334z m405-137l-98 95v140a42 42 0 0 1-42 42h-138l-97 98a42 42 0 0 1-60 0l-95-98h-140a42 42 0 0 1-42-42v-140l-98-95a42 42 0 0 1 0-60l98-97v-138a42 42 0 0 1 42-42h140l98-98a42 42 0 0 1 59 0l97 98h138a42 42 0 0 1 42 42v138l98 97a42 42 0 0 1-2 60z m-169-110a42 42 0 0 1-13-30v-113h-113a42 42 0 0 1-30-13l-80-80-80 80a42 42 0 0 1-30 13h-113v113a42 42 0 0 1-13 30l-80 80 80 80a42 42 0 0 1 13 30v113h113a42 42 0 0 1 30 13l80 80 80-80a42 42 0 0 1 30-13h113v-113a42 42 0 0 1 13-30l80-80z" horiz-adv-x="1000" />

<glyph glyph-name="brightness-empty" unicode="&#xe9cb;" d="M905 380l-98 95v140a42 42 0 0 1-42 42h-138l-97 98a42 42 0 0 1-60 0l-95-98h-140a42 42 0 0 1-42-42v-140l-98-95a42 42 0 0 1 0-60l98-97v-138a42 42 0 0 1 42-42h140l98-98a42 42 0 0 1 59 0l97 98h138a42 42 0 0 1 42 42v138l98 97a42 42 0 0 1-2 60z m-169-110a42 42 0 0 1-13-30v-113h-113a42 42 0 0 1-30-13l-80-80-80 80a42 42 0 0 1-30 13h-113v113a42 42 0 0 1-13 30l-80 80 80 80a42 42 0 0 1 13 30v113h113a42 42 0 0 1 30 13l80 80 80-80a42 42 0 0 1 30-13h113v-113a42 42 0 0 1 13-30l80-80z" horiz-adv-x="1000" />

<glyph glyph-name="sun" unicode="&#xe9cc;" d="M235 142l-30-30a42 42 0 0 1 0-59 42 42 0 0 1 59 0l30 30a42 42 0 0 1-59 59z m-27 208a42 42 0 0 1-41 42h-42a42 42 0 0 1 0-84h42a42 42 0 0 1 41 42z m292 292a42 42 0 0 1 42 41v42a42 42 0 0 1-84 0v-42a42 42 0 0 1 42-41z m-265-86a42 42 0 0 1 29-12 42 42 0 0 1 30 12 42 42 0 0 1 0 59l-30 30a42 42 0 0 1-59-59z m500-12a42 42 0 0 1 29 12l30 30a42 42 0 1 1-59 59l-27-30a42 42 0 0 1 0-59 42 42 0 0 1 28-12z m140-152h-42a42 42 0 0 1 0-84h42a42 42 0 0 1 0 84z m-375-334a42 42 0 0 1-42-41v-42a42 42 0 0 1 84 0v42a42 42 0 0 1-42 41z m265 84a42 42 0 0 1-57-57l30-30a42 42 0 0 1 59 0 42 42 0 0 1 0 59z m-265 437a229 229 0 1 1 229-229 230 230 0 0 1-229 229z m0-375a146 146 0 1 0 146 146 146 146 0 0 0-146-146z" horiz-adv-x="1000" />

<glyph glyph-name="brightness-plus" unicode="&#xe9cd;" d="M583 392h-41v41a42 42 0 0 1-84 0v-41h-41a42 42 0 0 1 0-84h41v-41a42 42 0 0 1 84 0v41h41a42 42 0 0 1 0 84z m322-12l-98 95v140a42 42 0 0 1-42 42h-138l-97 98a42 42 0 0 1-60 0l-95-98h-140a42 42 0 0 1-42-42v-140l-98-95a42 42 0 0 1 0-60l98-97v-138a42 42 0 0 1 42-42h140l98-98a42 42 0 0 1 59 0l97 98h138a42 42 0 0 1 42 42v138l98 97a42 42 0 0 1-2 60z m-169-110a42 42 0 0 1-13-30v-113h-113a42 42 0 0 1-30-13l-80-80-80 80a42 42 0 0 1-30 13h-113v113a42 42 0 0 1-13 30l-80 80 80 80a42 42 0 0 1 13 30v113h113a42 42 0 0 1 30 13l80 80 80-80a42 42 0 0 1 30-13h113v-113a42 42 0 0 1 13-30l80-80z" horiz-adv-x="1000" />

<glyph glyph-name="key-skeleton" unicode="&#xe9ce;" d="M875 666l30 29a42 42 0 1 1-60 60l-58-59h0l-118-118h0l-263-263a208 208 0 1 1 59-59l233 234 89-89a42 42 0 1 1 58 59l-88 88 59 59 29-29a42 42 0 1 1 60 59z m-583-649a125 125 0 1 0 125 125 125 125 0 0 0-125-125z" horiz-adv-x="1000" />

<glyph glyph-name="adjust" unicode="&#xe9d0;" d="M500 767a417 417 0 1 1 417-417 417 417 0 0 1-417 417z m-42-747a333 333 0 0 0 0 660z m84 0v660a333 333 0 0 0 0-660z" horiz-adv-x="1000" />

<glyph glyph-name="keyboard-hide" unicode="&#xe9d1;" d="M280 421a48 48 0 0 1-14 9 42 42 0 0 1-46-9 42 42 0 0 1-8-13 42 42 0 0 1 8-46 48 48 0 0 1 14-9 42 42 0 0 1 54 55 42 42 0 0 1-8 13z m107 108a42 42 0 0 1 30-12 35 35 0 0 1 15 3 48 48 0 0 1 14 9 48 48 0 0 1 9 14 39 39 0 0 1 0 31 48 48 0 0 1-9 14 42 42 0 0 1-59 0 48 48 0 0 1-9-14 39 39 0 0 1 0-31 48 48 0 0 1 9-14z m-107 59a42 42 0 0 1-72-30 42 42 0 0 1 4-15 48 48 0 0 1 8-14 42 42 0 0 1 30-12 35 35 0 0 1 16 3 48 48 0 0 1 14 9 48 48 0 0 1 8 14 39 39 0 0 1 0 31 48 48 0 0 1-8 14z m274-500l-54-54-54 54a42 42 0 0 1-59-59l83-84a42 42 0 0 1 60 0l83 84a42 42 0 0 1-59 59z m226 500a42 42 0 0 1-72-30 35 35 0 0 1 4-15 48 48 0 0 1 8-14 42 42 0 0 1 60 0 48 48 0 0 1 8 14 35 35 0 0 1 4 15 42 42 0 0 1-4 16 48 48 0 0 1-8 14z m-197-155h-166a42 42 0 0 1 0-83h166a42 42 0 0 1 0 83z m250 334h-666a125 125 0 0 1-125-125v-334a125 125 0 0 1 125-125h666a125 125 0 0 1 125 125v334a125 125 0 0 1-125 125z m42-459a42 42 0 0 0-42-41h-666a42 42 0 0 0-42 41v334a42 42 0 0 0 42 41h666a42 42 0 0 0 42-41z m-95 113a42 42 0 0 1-14 9 38 38 0 0 1-32 0 48 48 0 0 1-14-9 44 44 0 0 1-12-29 42 42 0 1 1 80 16 42 42 0 0 1-8 13z m-213 176a48 48 0 0 1-13-9 44 44 0 0 1-12-30 42 42 0 0 1 3-15 48 48 0 0 1 9-14 42 42 0 0 1 29-12 35 35 0 0 1 16 3 48 48 0 0 1 14 9 48 48 0 0 1 9 14 35 35 0 0 1 3 15 44 44 0 0 1-12 30 42 42 0 0 1-46 9z" horiz-adv-x="1000" />

<glyph glyph-name="brightness-minus" unicode="&#xe9d2;" d="M583 392h-166a42 42 0 0 1 0-84h166a42 42 0 0 1 0 84z m322-12l-98 95v140a42 42 0 0 1-42 42h-138l-97 98a42 42 0 0 1-60 0l-95-98h-140a42 42 0 0 1-42-42v-140l-98-95a42 42 0 0 1 0-60l98-97v-138a42 42 0 0 1 42-42h140l98-98a42 42 0 0 1 59 0l97 98h138a42 42 0 0 1 42 42v138l98 97a42 42 0 0 1-2 60z m-169-110a42 42 0 0 1-13-30v-113h-113a42 42 0 0 1-30-13l-80-80-80 80a42 42 0 0 1-30 13h-113v113a42 42 0 0 1-13 30l-80 80 80 80a42 42 0 0 1 13 30v113h113a42 42 0 0 1 30 13l80 80 80-80a42 42 0 0 1 30-13h113v-113a42 42 0 0 1 13-30l80-80z" horiz-adv-x="1000" />

<glyph glyph-name="key-skeleton-alt" unicode="&#xe9d3;" d="M905 578l-60 59 60 58a42 42 0 1 1-60 60l-439-440a208 208 0 1 1 59-59l204 204 59-59a42 42 0 0 1 29-12 42 42 0 0 1 30 12 42 42 0 0 1 0 59l-59 57 59 59 58-59a42 42 0 0 1 30-12 42 42 0 0 1 30 12 42 42 0 0 1 0 61z m-613-561a125 125 0 1 0 125 125 125 125 0 0 0-125-125z" horiz-adv-x="1000" />

<glyph glyph-name="bus" unicode="&#xe9d4;" d="M354 142a42 42 0 0 1 42 41 57 57 0 0 1 0 9 27 27 0 0 1-3 7 32 32 0 0 1-3 8l-5 6a42 42 0 0 1-14 9 42 42 0 0 1-25 3l-8-2-7-4a66 66 0 0 1-6-5l-5-6a32 32 0 0 1-4-8 27 27 0 0 1-3-7 57 57 0 0 1 0-9 42 42 0 0 1 42-41z m334 0a42 42 0 0 1 41 41 57 57 0 0 1 0 9 27 27 0 0 1-2 7 32 32 0 0 1-4 8l-5 6a48 48 0 0 1-14 9 42 42 0 0 1-31 0 48 48 0 0 1-14-9l-5-6a32 32 0 0 1-4-8 27 27 0 0 1-2-7 57 57 0 0 1 0-9 42 42 0 0 1 12-29 42 42 0 0 1 28-12z m-125 500h-84a42 42 0 0 1 0-84h84a42 42 0 0 1 0 84z m208 125h-500a125 125 0 0 1-125-125v-500a125 125 0 0 1 83-118v-49a42 42 0 0 1 83 0v42h417v-42a42 42 0 0 1 83 0v49a125 125 0 0 1 84 118v500a125 125 0 0 1-125 125z m41-625a42 42 0 0 0-41-42h-500a42 42 0 0 0-42 42v125h583z m0 208h-583v292a42 42 0 0 0 42 41h500a42 42 0 0 0 41-41z" horiz-adv-x="1000" />

<glyph glyph-name="parcel" unicode="&#xe9d5;" d="M292 267h83a42 42 0 0 1 0 83h-83a42 42 0 0 1 0-83z m250-84h-250a42 42 0 0 1 0-83h250a42 42 0 0 1 0 83z m250 584h-584a125 125 0 0 1-125-125v-584a125 125 0 0 1 125-125h584a125 125 0 0 1 125 125v584a125 125 0 0 1-125 125z m-209-84v-137l-63 35a42 42 0 0 1-41 0l-62-35v137z m250-625a42 42 0 0 0-41-41h-584a42 42 0 0 0-41 41v584a42 42 0 0 0 41 41h125v-208a42 42 0 0 1 21-36 42 42 0 0 1 42 0l104 58 105-58a42 42 0 0 1 20-6 42 42 0 0 1 42 42v208h125a42 42 0 0 0 41-41z" horiz-adv-x="1000" />

<glyph glyph-name="car-sideview" unicode="&#xe9d6;" d="M792 454h-14l-52 130a125 125 0 0 1-116 79h-250a125 125 0 0 1-122-101l-22-108h-8a125 125 0 0 1-125-125v-125a42 42 0 0 1 42-41h42a125 125 0 0 1 250 0h166a125 125 0 0 1 250 0h42a42 42 0 0 1 42 41v125a125 125 0 0 1-125 125z m-250 125h68a42 42 0 0 0 39-26l39-99h-146z m-223-33a42 42 0 0 0 42 33h97v-125h-157z m-27-425a42 42 0 1 0 41 42 42 42 0 0 0-41-42z m416 0a42 42 0 1 0 42 42 42 42 0 0 0-42-42z m125 125h-32a125 125 0 0 1-185 0h-232a125 125 0 0 1-185 0h-32v83a42 42 0 0 0 41 42h584a42 42 0 0 0 41-42z" horiz-adv-x="1000" />

<glyph glyph-name="car-wash" unicode="&#xe9d7;" d="M313 683a42 42 0 0 1 29 12l42 42a42 42 0 0 1-59 59l-42-41a42 42 0 0 1 0-60 42 42 0 0 1 30-12z m166 0a42 42 0 0 1 30 12l41 42a42 42 0 1 1-59 59l-41-41a42 42 0 0 1 0-60 42 42 0 0 1 29-12z m167 0a42 42 0 0 1 29 12l42 42a42 42 0 1 1-59 59l-42-41a42 42 0 0 1 0-60 42 42 0 0 1 30-12z m101-484a32 32 0 0 1-4 8l-5 6-6 5a32 32 0 0 1-8 4 25 25 0 0 1-8 2 42 42 0 0 1-37-11 66 66 0 0 1-5-6 32 32 0 0 1-4-8 27 27 0 0 1-2-7 57 57 0 0 1 0-9 42 42 0 0 1 12-29 38 38 0 0 1 13-9 42 42 0 0 1 15-3 42 42 0 0 1 42 41 57 57 0 0 1 0 9 27 27 0 0 1-3 7z m76 188l-56 169a125 125 0 0 1-119 84h-296a125 125 0 0 1-119-84l-56-169a125 125 0 0 1-94-120v-167a125 125 0 0 1 84-117v-50a42 42 0 0 1 83 0v42h500v-42a42 42 0 0 1 83 0v49a125 125 0 0 1 84 118v167a125 125 0 0 1-94 120z m-511 143a42 42 0 0 0 40 28h296a42 42 0 0 0 42-28l44-138h-468z m521-430a42 42 0 0 0-41-42h-584a42 42 0 0 0-41 42v167a42 42 0 0 0 41 41h584a42 42 0 0 0 41-41z m-291 125h-84a42 42 0 0 1 0-83h84a42 42 0 0 1 0 83z m-212-26a32 32 0 0 1-4 8l-5 6a42 42 0 0 1-45 9 42 42 0 0 1-14-9 66 66 0 0 1-5-6 32 32 0 0 1-4-8 27 27 0 0 1-3-7 57 57 0 0 1 0-9 42 42 0 0 1 71-29 42 42 0 0 1 12 29 57 57 0 0 1 0 9 27 27 0 0 1-3 7z" horiz-adv-x="1000" />

<glyph glyph-name="bus-school" unicode="&#xe9d8;" d="M42 329v-166a42 42 0 0 1 41-42h42a125 125 0 0 1 250 0h250a125 125 0 0 1 250 0h42a42 42 0 0 1 41 42v416a125 125 0 0 1-125 125h-481a125 125 0 0 1-119-85l-60-180-113-75a42 42 0 0 1-18-35z m833 125h-83v167h41a42 42 0 0 0 42-42z m-167-333a42 42 0 1 0 42-42 42 42 0 0 0-42 42z m-83 250h250v-167h-33a125 125 0 0 1-185 0h-32z m0 250h83v-167h-83z m-167-250h84v-167h-84z m0 250h84v-167h-84z m-83-167h-109l46 139a42 42 0 0 0 40 28h23z m-167-333a42 42 0 1 0 42-42 42 42 0 0 0-42 42z m-83 187l96 63h154v-167h-32a125 125 0 0 1-185 0h-33z" horiz-adv-x="1000" />

<glyph glyph-name="subway" unicode="&#xe9d9;" d="M667 142a42 42 0 0 1 41 41 57 57 0 0 1 0 9 27 27 0 0 1-2 7 32 32 0 0 1-4 8l-5 6a48 48 0 0 1-14 9 42 42 0 0 1-31 0 48 48 0 0 1-14-9l-5-6a32 32 0 0 1-4-8 27 27 0 0 1-2-7 57 57 0 0 1 0-9 42 42 0 0 1 41-41z m83 625h-500a125 125 0 0 1-125-125v-500a125 125 0 0 1 50-100l-38-37a42 42 0 0 1 0-60 42 42 0 0 1 59 0l71 72h466l71-72a42 42 0 0 1 59 0 42 42 0 0 1 0 60l-38 37a125 125 0 0 1 50 100v500a125 125 0 0 1-125 125z m-542-250h250v-167h-250z m584-375a42 42 0 0 0-42-42h-500a42 42 0 0 0-42 42v125h584z m0 208h-250v167h250z m0 250h-584v42a42 42 0 0 0 42 41h500a42 42 0 0 0 42-41z m-459-458a42 42 0 0 1 42 41 57 57 0 0 1 0 9 27 27 0 0 1-2 7 32 32 0 0 1-4 8l-5 6a48 48 0 0 1-14 9 42 42 0 0 1-32 0 48 48 0 0 1-13-9l-5-6a32 32 0 0 1-4-8 27 27 0 0 1-4-7 57 57 0 0 1 0-9 42 42 0 0 1 12-29 42 42 0 0 1 29-12z" horiz-adv-x="1000" />

<glyph glyph-name="ship" unicode="&#xe9da;" d="M151 130a42 42 0 0 1 77 31l-46 117 276 62v-198a42 42 0 0 1 84 0v198l276-62-46-117a42 42 0 0 1 23-54 42 42 0 0 1 15-3 42 42 0 0 1 39 26l65 163a42 42 0 0 1-2 35 42 42 0 0 1-28 21l-134 30v179a42 42 0 0 1-42 42h-83v125a42 42 0 0 1-42 42h-166a42 42 0 0 1-42-42v-125h-83a42 42 0 0 1-42-42v-179l-134-29a42 42 0 0 1-28-21 42 42 0 0 1-2-35z m307 553h84v-83h-84z m-125-166h334v-119l-158 35h-4l-5 0-5 0h-4l-158-35z m530-470a182 182 0 0 1-42-19 87 87 0 0 0-87 0 193 193 0 0 1-189 0 89 89 0 0 0-89 0 193 193 0 0 1-189 0 87 87 0 0 0-87 0 182 182 0 0 1-42 19 42 42 0 0 1-55-30 42 42 0 0 1 28-52 88 88 0 0 0 24-10 167 167 0 0 1 83-23 172 172 0 0 1 87 23 110 110 0 0 0 107 0 173 173 0 0 1 171 0 110 110 0 0 0 107 0 167 167 0 0 1 171 0 88 88 0 0 0 24 10 42 42 0 0 1 32 52 42 42 0 0 1-54 30z" horiz-adv-x="1000" />

<glyph glyph-name="bus-alt" unicode="&#xe9db;" d="M771 767h-500a125 125 0 0 1-125-125v-500a125 125 0 0 1 83-118v-49a42 42 0 0 1 83 0v42h417v-42a42 42 0 0 1 83 0v49a125 125 0 0 1 84 118v500a125 125 0 0 1-125 125z m-542-250h250v-167h-250z m583-375a42 42 0 0 0-41-42h-500a42 42 0 0 0-42 42v125h583z m0 208h-250v167h250z m0 250h-583v42a42 42 0 0 0 42 41h500a42 42 0 0 0 41-41z m-140-455a42 42 0 0 1 16-3 42 42 0 0 1 41 41 57 57 0 0 1 0 9 27 27 0 0 1-2 7 32 32 0 0 1-4 8 66 66 0 0 1-5 6l-6 5a32 32 0 0 1-8 4 27 27 0 0 1-8 3 42 42 0 0 1-38-11 66 66 0 0 1-5-6 32 32 0 0 1-4-8 27 27 0 0 1-2-7 57 57 0 0 1 0-9 42 42 0 0 1 12-29 42 42 0 0 1 13-10z m-334 0a42 42 0 0 1 16-3 42 42 0 0 1 42 41 57 57 0 0 1 0 9 27 27 0 0 1-3 7 32 32 0 0 1-3 8 66 66 0 0 1-5 6l-7 5-7 4-9 3a42 42 0 0 1-37-11 66 66 0 0 1-5-6 32 32 0 0 1-4-8 27 27 0 0 1-3-7 57 57 0 0 1 0-9 42 42 0 0 1 12-29 42 42 0 0 1 13-10z" horiz-adv-x="1000" />

<glyph glyph-name="subway-alt" unicode="&#xe9dc;" d="M625 142h42a42 42 0 0 1 0 83h-42a42 42 0 0 1 0-83z m250 0v333a125 125 0 0 1-125 125h-208v83h166a42 42 0 0 1 0 84h-416a42 42 0 0 1 0-84h166v-83h-208a125 125 0 0 1-125-125v-333a125 125 0 0 1 50-100l-38-37a42 42 0 0 1 0-60 42 42 0 0 1 59 0l71 72h466l71-72a42 42 0 0 1 59 0 42 42 0 0 1 0 60l-38 37a125 125 0 0 1 50 100z m-667 333a42 42 0 0 0 42 42h208v-167h-250z m584-333a42 42 0 0 0-42-42h-500a42 42 0 0 0-42 42v125h584z m0 208h-250v167h208a42 42 0 0 0 42-42z m-459-208h42a42 42 0 0 1 0 83h-42a42 42 0 0 1 0-83z" horiz-adv-x="1000" />

<glyph glyph-name="taxi" unicode="&#xe9dd;" d="M724 243a42 42 0 0 1-24 2 27 27 0 0 1-7-2 32 32 0 0 1-8-4l-6-5a44 44 0 0 1-12-30 42 42 0 0 1 12-29 50 50 0 0 1 14-10 42 42 0 0 1 45 10 48 48 0 0 1 9 13 35 35 0 0 1 3 16 44 44 0 0 1-12 30 39 39 0 0 1-14 9z m109 162v133a125 125 0 0 1-125 125h-32l-32 96a42 42 0 0 1-40 29h-208a42 42 0 0 1-40-29l-32-96h-32a125 125 0 0 1-125-125v-133a125 125 0 0 1-84-117v-250a42 42 0 0 1 42-42h42v-42a42 42 0 0 1 83 0v42h500v-42a42 42 0 0 1 83 0v42h42a42 42 0 0 1 42 42v250a125 125 0 0 1-84 117z m-407 299h148l14-41h-176z m-176-166a42 42 0 0 0 42 41h416a42 42 0 0 0 42-41v-125h-500z m583-459h-666v209a42 42 0 0 0 41 41h584a42 42 0 0 0 41-41z m-557 164a42 42 0 0 1-14-9 44 44 0 0 1-12-30 42 42 0 0 1 58-39 50 50 0 0 1 13 10 42 42 0 0 1 12 29 44 44 0 0 1-12 30 42 42 0 0 1-45 9z m266 3h-84a42 42 0 0 1 0-83h84a42 42 0 0 1 0 83z" horiz-adv-x="1000" />

<glyph glyph-name="truck-loading" unicode="&#xe9de;" d="M917 183h-91a125 125 0 0 1 7 42v208a125 125 0 0 1-125 125h-250a125 125 0 0 1-125-125v-208a125 125 0 0 1 8-42h-49a42 42 0 0 0-42 42v417a125 125 0 0 1-125 125h-42a42 42 0 0 1 0-84h42a42 42 0 0 0 42-41v-417a125 125 0 0 1 92-120 125 125 0 1 1 233-5h141a125 125 0 1 1 235 0h49a42 42 0 0 1 0 83z m-542-166a42 42 0 1 0 42 41 42 42 0 0 0-42-41z m83 166a42 42 0 0 0-41 42v208a42 42 0 0 0 41 42h250a42 42 0 0 0 42-42v-208a42 42 0 0 0-42-42z m292-166a42 42 0 1 0 42 41 42 42 0 0 0-42-41z" horiz-adv-x="1000" />

<glyph glyph-name="dribbble" unicode="&#xe9df;" d="M500 767a417 417 0 1 1 417-417 417 417 0 0 1-417 417z m0-84a331 331 0 0 0 230-92 1039 1039 0 0 0-202-91 1211 1211 0 0 1-119 170 331 331 0 0 0 91 13z m-171-48a1132 1132 0 0 0 117-160 1046 1046 0 0 0-250-31h-15a333 333 0 0 0 148 191z m-79-506a329 329 0 0 0-83 221c0 4 0 8 0 12h28a1111 1111 0 0 1 292 42c13-26 26-52 38-79a596 596 0 0 1-179-100l-13-10a875 875 0 0 1-83-86z m250-112a330 330 0 0 0-186 57 747 747 0 0 0 65 66l13 11a526 526 0 0 0 167 94 1333 1333 0 0 0 58-208 337 337 0 0 0-117-20z m193 62a1453 1453 0 0 1-53 186l14 0a10 10 0 0 0 5 0h4l4 0 20 0a393 393 0 0 0 129-22 331 331 0 0 0-123-164z m-5 271c-9 0-18 0-26 0a65 65 0 0 1-17 0 277 277 0 0 1-33-4h-4c-13 28-25 55-39 83a1107 1107 0 0 1 214 100 333 333 0 0 0 50-179c0-7 0-14 0-21a478 478 0 0 1-145 21z" horiz-adv-x="1000" />

<glyph glyph-name="dropbox" unicode="&#xe9e0;" d="M900 358l-135 105 136 107a42 42 0 0 1 16 36 44 44 0 0 1-21 33l-214 122a42 42 0 0 1-48-5l-134-116-134 116a42 42 0 0 1-48 5l-214-122a44 44 0 0 1-21-33 42 42 0 0 1 16-36l136-107-135-103a42 42 0 0 1-17-36 42 42 0 0 1 21-34l142-83v-103a42 42 0 0 1 20-35l212-131a42 42 0 0 1 42 0l212 131a42 42 0 0 1 20 35v104l142 81a42 42 0 0 1 21 33 42 42 0 0 1-15 36z m-233 316l134-76-106-84-125 77z m-46-213l-121-83-121 83 121 74z m-421 137l133 76 97-83-125-77z m0-267l104 80 125-86-93-72z m470-202l-170-105-170 105v33a42 42 0 0 1 35 8l135 104 135-104a42 42 0 0 1 25-9 42 42 0 0 1 10 0z m-6 125l-93 71 125 86 104-81z" horiz-adv-x="1000" />

<glyph glyph-name="envelope-check" unicode="&#xe9e1;" d="M679 487a42 42 0 0 1 59 0l167 167a42 42 0 1 1-60 59l-137-138-53 55a42 42 0 0 1-60-60z m196 30a42 42 0 0 1-42-42v-375a42 42 0 0 0-41-42h-584a42 42 0 0 0-41 42v400l245-246a125 125 0 0 1 88-36 128 128 0 0 1 90 37l71 72a42 42 0 1 1-59 59l-73-73a42 42 0 0 0-58 0l-246 245h233a42 42 0 0 1 0 84h-250a125 125 0 0 1-125-125v-417a125 125 0 0 1 125-125h584a125 125 0 0 1 125 125v375a42 42 0 0 1-42 42z" horiz-adv-x="1000" />
</font>
</defs>
</svg>
